*Artist: There's A Light
*Album: Khartoum [ep]
*Year: 2012
*Genre: Post-Rock/Experimental
*Country: Germany
*Format: mp3@CBR320kbps
*Size: 41MB

Tracklist:
1. Unity 03:46
2. Khartoum 04:34
3. Eudaimonia 03:56
4. We Choose To Go To The Moon 04:09
******************************
Total playing time: 16:26





Extended info
All music was written and recorded in 2012 by:

David Christmann
Jonas Obermüller
Andreas Richau
Nicolas Richau


Track 1 contains parts of the final speech from the movie "The Great Dictator" by Charlie Chaplin.


Technical info

Input File: 01 Unity.mp3
Channels : 2
Sample Rate : 44100
Precision : 16-bit
Duration : 00:03:46.08 = 9969952 samples = 16955.7 CDDA sectors
File Size : 9.17M
Bit Rate : 324k
Sample Encoding: MPEG audio (layer I, II or III)
Comments :
Title=Unity
Artist=There's A Light
Album=Khartoum
Tracknumber=1
Year=2012
Genre=Post-Rock



[ Hidden Text ]