*Artist: Passion
*Album: Passion
*Year: 2020
*Genre: Heavy Metal/Hard Rock
*Country: United Kingdom
*Format: mp3@CBR320kbps
*Size: 92MB

Tracklist:
01. Intensity
02. Trespass On Love
03. Too Bad For Baby
04. Lost In The Dark
05. Back
06. Victims Of Desire
07. We Do What We Want
08. Built To Please
09. She Bites Hard
10. Big Game
******************************
Total playing time: 40:07

Extended info




Lineup:
Lion Ravarez - Vocals
Chance Vanderlain - Guitar
Weston James - Bass
Bobby Laker - Drums


Technical info

Input File: 01-Intensity.mp3
Channels : 2
Sample Rate : 44100
Precision : 16-bit
Duration : 00:04:32.58 = 12020734 samples = 20443.4 CDDA sectors
File Size : 10.9M
Bit Rate : 320k
Sample Encoding: MPEG audio (layer I, II or III)
Comments :
Title=Intensity
Artist=Passion
Album=Passion
Tracknumber=1
Year=2020
Genre=Heavy Metal



[ Hidden Text ]