Help - Search - Members - Calendar
Full Version: Division Of Madness - Enter The Wonderland (2020)
Metal Area - Extreme Music Portal > Releases Area / Релизы > New Releases > Unformat R:
VLADISLAV_V_K


*Artist: Division Of Madness
*Album: Enter The Wonderland
*Year: 2020
*Genre: Heavy Metal/Hard Rock
*Country: United States
*Format: mp3@CBR320kbps
*Size: 135MB

Tracklist:
01. Wonderland
02. Overrated
03. Revolution
04. Talking to myShadow
05. Like the Wind
06. Brick House
07. Chainsaw Woman
08. In the Name of Love
09. Radioactive
10. Closer
11. She
12. The Waiting Game
13. Pretending
14. Where Angels Burn
******************************
Total playing time: 58:56

Preview 1
Preview 2

Extended info






Composer Lyricist: Markus Metzger
Songwriter: Markus Metzger
Composer Lyricist: Sotirios Eleftheriadis
Songwriter: Sotirios Eleftheriadis


Technical info

Input File: 01-Wonderland.mp3
Channels : 2
Sample Rate : 44100
Precision : 16-bit
Duration : 00:05:32.64 = 14669336 samples = 24947.9 CDDA sectors
File Size : 13.3M
Bit Rate : 320k
Sample Encoding: MPEG audio (layer I, II or III)
Comments :
Title=Wonderland
Artist=Division Of Madness
Album=Enter The Wonderland
Tracknumber=1
Year=2020
Genre=Heavy Metal



[ Hidden Text ]
VLADISLAV_V_K
FLAC tracks
[ Hidden Text ]
Kehl05
Ну да,базара нет,раз в превью стоит гугол плей и яндекс музыка,значит инфа железная - Страна: United States 1488.gif Тебе казахи написали бы,ты бы также и указал тупо скопировал
This is a "lo-fi" version of our main content. To view the full version with more information, formatting and images, please click here.
Invision Power Board © 2001-2020 Invision Power Services, Inc.