*Artist: Neil Mcdougall
*Album: The Circle Squared
*Year: 2020
*Genre: Instrumental Progressive Rock
*Country: United States
*Format: mp3@CBR320kbps
*Size: 88MB

Tracklist:
01. Three Thirteen
02. Ablaze
03. Olympiad
04. Better
05. Caged
06. Crashing
07. Gatekeeper
08. Ascension
09. Dogfighter
10. Rebound
11. Seventh Heaven
******************************
Total playing time: 38:26





Technical info

Input File: 02-Ablaze.mp3
Channels : 2
Sample Rate : 44100
Precision : 16-bit
Duration : 00:03:46.16 = 9973524 samples = 16961.8 CDDA sectors
File Size : 9.05M
Bit Rate : 320k
Sample Encoding: MPEG audio (layer I, II or III)
Comments :
Title=Ablaze
Artist=Neil McDougall
Album=The Circle Squared
Tracknumber=2/11
Year=2020
Genre=Progressive Metal / Instrumental



[ Hidden Text ]