Help - Search - Members - Calendar
Full Version: Cymande - Cymande (1972)
Metal Area - Extreme Music Portal > Releases Area / Релизы > New Releases > Unformat R:
Borderline1991


*Artist: Cymande
*Album: Cymande
*Year: 1972
*Genre: Fusion Rock
*Country: United Kingdom
*Format: mp3@CBR320kbps
*Size: 120MB

Tracklist:
01 Zion I 03:30
02 One More 03:05
03 Getting It Back 04:18
04 Listen 04:40
05 Rickshaw 05:54
06 Dove 10:54
07 Bra 05:06
08 The Message 04:20
09 Ras Tafarian Folk Song 03:15
10 The Message (7'' Mix) 03:28
11 Bra (7'' Mix) 03:28
******************************
Total playing time: 51:58

Preview 1

Extended info


Technical info

Input File: 02 - One More.mp3
Channels : 2
Sample Rate : 44100
Precision : 16-bit
Duration : 00:03:05.87 = 8196911 samples = 13940.3 CDDA sectors
File Size : 7.43M
Bit Rate : 320k
Sample Encoding: MPEG audio (layer I, II or III)



[ Hidden Text ]
vosmidesijatye
Another rare stuff?

Will definitely give it a try.

The 70's era so rarely disappoints.

Soon I'll upload something psyched out from this time.
This is a "lo-fi" version of our main content. To view the full version with more information, formatting and images, please click here.
Invision Power Board © 2001-2020 Invision Power Services, Inc.