Help - Search - Members - Calendar
Full Version: Исихия - Орисия (2003)
Metal Area - Extreme Music Portal > Releases Area / Релизы > New Releases > Unformat R:
Black Cat


*Artist: Исихия
*Album: Орисия
*Year: 2003
*Genre: Bulgarian Folk/Ambient
*Country: Bulgaria
*Format: mp3@CBR320kbps
*Size: 153MB

Tracklist:
01. Ключ
02. Родопа
03. Угар
04. Кости
05. Турски Танц
06. Проклятието
07. Чакрък
08. Въведение
09. Арамии
10. Господи Возвах
11. Ветре
******************************
Total playing time: 1:11:04



Technical info

Input File: 02 - Родопа.mp3
Channels : 2
Sample Rate : 44100
Precision : 16-bit
Duration : 00:10:33.72 = 27946876 samples = 47528.7 CDDA sectors
File Size : 25.3M
Bit Rate : 320k
Sample Encoding: MPEG audio (layer I, II or III)
Comments :
Title=Родопа
Artist=Исихия
Album=Орисия
Tracknumber=02
Year=2003
Genre=Bulgarian Folk/Ambient



[ Hidden Text ]
Slavas
Please re-up
INDARKNESS
[ Hidden Text ]
This is a "lo-fi" version of our main content. To view the full version with more information, formatting and images, please click here.
Invision Power Board © 2001-2020 Invision Power Services, Inc.