Help - Search - Members - Calendar
Full Version: Stone Temple Pilots - Perdida (2020)
Metal Area - Extreme Music Portal > Releases Area / Релизы > New Releases > Unformat R:
Andrew


*Artist: Stone Temple Pilots
*Album: Perdida
*Year: 2020
*Genre: Alternative Rock
*Country: United States
*Format: mp3@CBR320kbps
*Size: 104MB

Tracklist:
01. Fare Thee Well 04:21
02. Three Wishes 04:51
03. Perdida 03:29
04. I Didn't Know the Time 05:31
05. Years 03:30
06. She's My Queen 04:41
07. Miles Away 04:56
08. You Found Yourself While Losing Your Heart 05:43
09. I Once Sat at Your Table 01:56
10. Sunburst 06:28
******************************
Total playing time: 45:26




Technical info

Input File: 2 - Three Wishes.mp3
Channels : 2
Sample Rate : 44100
Precision : 16-bit
Duration : 00:04:52.04 = 12879052 samples = 21903.1 CDDA sectors
File Size : 11.7M
Bit Rate : 321k
Sample Encoding: MPEG audio (layer I, II or III)
Comments :
Title=Three Wishes
Artist=Stone Temple Pilots
Album=Perdida
Tracknumber=2
Year=2020
Genre=Rock
Discnumber=1



[ Hidden Text ]
hammer
И эти "курилки" ожили.Интересно, кому они нужны?
Bruce
Да они и не умирали, недавно уже был альбом, так себе кстати.
Хорошо что честно жанр указали, что не грандж
This is a "lo-fi" version of our main content. To view the full version with more information, formatting and images, please click here.
Invision Power Board © 2001-2020 Invision Power Services, Inc.