*Artist: Frayle
*Album: Dead Inside [ep]
*Year: 2019
*Genre: Doom/Post-Metal
*Country: United States
*Format: mp3@CBR320kbps
*Size: 20MB

Tracklist:
01. Dead Inside 04:32
02. Godless 04:29
******************************
Total playing time: 9:01





Technical info

Input File: 02. Godless.mp3
Channels : 2
Sample Rate : 44100
Precision : 16-bit
Duration : 00:04:29.71 = 11894035 samples = 20228 CDDA sectors
File Size : 10.8M
Bit Rate : 321k
Sample Encoding: MPEG audio (layer I, II or III)
Comments :
Title=Godless
Artist=Frayle
Album=Dead Inside
Tracknumber=02
Year=2019
Genre=Metal
Discnumber=1



[ Hidden Text ]