Help - Search - Members - Calendar
Full Version: Xerophthalmia - Forlorn//Hope [ep] (2020)
Metal Area - Extreme Music Portal > Releases Area / Релизы > New Releases
necroscum


*Artist: Xerophthalmia
*Album: Forlorn//Hope [ep]
*Year: 2020
*Genre: Deathcore
*Country: United States
*Format: mp3@CBR320kbps
*Size: 36MB

Tracklist:
01. Deviancy 03:00
02. Metamorphosis 02:31
03. Inferno 02:44
04. Overlord (feat. Andrew Patterson) 03:23
05. The Grey 04:03
******************************
Total playing time: 15:41





Technical info

Input File: 02 Metamorphosis.mp3
Channels : 2
Sample Rate : 44100
Precision : 16-bit
Duration : 00:02:31.89 = 6698217 samples = 11391.5 CDDA sectors
File Size : 6.15M
Bit Rate : 324k
Sample Encoding: MPEG audio (layer I, II or III)
Comments :
Title=Metamorphosis
Artist=Xerophthalmia
Album=Forlorn // Hope
Tracknumber=2
Year=2020
Genre=Slamming Deathcore
Discnumber=1/1



[ Hidden Text ]
Foneg
Почему я, заходя в тему с тегом Deathcore, всё время ожидаю чего-то нового и необычного? hmm.gif
Сабж мегастандартнейший, ещё и с плохим звуком.
This is a "lo-fi" version of our main content. To view the full version with more information, formatting and images, please click here.
Invision Power Board © 2001-2020 Invision Power Services, Inc.