*Artist: Karnivore
*Album: Dödsriket
*Year: 2020
*Genre: Death/Thrash Metal
*Country: Sweden
*Format: mp3@CBR128kbps
*Size: 44MB

Tracklist:
1.Hinterkaifeck (Intro)
2.Empire of Filth
3.War Is Coming
4.Slice 'n Dice
5.No Freak
6.Murder Dungeon
7.Black Flames
8.The Antfarm
9.Woodshed
10.Disfigured Man
******************************
Total playing time: 45:55



Extended info
Line - up:

Mattias Johansson - Drums (Goat Skull, In Pain, ex-Fear the Future, ex-Karneywar, ex-El Camino, ex-Nidhöggr, ex-Under Attack)
Jens Englund - Guitars (Skyfall, ex-Memoria, ex-Karneywar)
Martin Holmqvist - Vocals (ex-Karneywar)

https://f4.bcbits.com/img/0013104175_10.jpg


Technical info

Input File: 03 Karnivore - War Is Coming.mp3
Channels : 2
Sample Rate : 44100
Precision : 16-bit
Duration : 00:04:09.58 = 11006434 samples = 18718.4 CDDA sectors
File Size : 4.00M
Bit Rate : 128k
Sample Encoding: MPEG audio (layer I, II or III)
Comments :
Title=War Is Coming
Artist=Karnivore
Album=Dödsriket
Tracknumber=3
Year=2020
Genre=Death/Thrash Metal



[ Hidden Text ]