Help - Search - Members - Calendar
Full Version: Morketsvind - Saga Of Blood Lands (2018)
Metal Area - Extreme Music Portal > Releases Area / Релизы > New Releases > Unformat R:
Dreamtale


*Artist: Morketsvind
*Album: Saga Of Blood Lands
*Year: 2018
*Genre: Dungeon Synth
*Country: Russian Federation
*Format: mp3@CBR320kbps
*Size: 85MB

Tracklist:
1.Crusade 03:24
2. Borderland Forest 04:00
3. Sunset in Dark Mountains 03:58
4. Mountains of Blood 03:23
5. Citadel on Horisont 03:02
6. Intrigues of Kha-Enir 03:07
7. Ceremony of Blood God 04:14
8. Imperial Ball 03:16
9. Gates above the Altar 03:41
10. Return 03:38
******************************
Total playing time: 35:43


VK

Technical info

Input File: Morketsvind - Saga Of Blood Lands - 01 Crusade.mp3
Channels : 2
Sample Rate : 44100
Precision : 16-bit
Duration : 00:03:24.08 = 8999884 samples = 15305.9 CDDA sectors
File Size : 8.26M
Bit Rate : 324k
Sample Encoding: MPEG audio (layer I, II or III)
Comments :
Title=Crusade
Artist=Morketsvind
Album=Saga Of Blood Lands
Tracknumber=1
Year=2018



[ Hidden Text ]
Dreamtale
[ Hidden Text ]
Der_Hexer
Один из самых (если не самый) интересных и качественных Dungeon Synth проектов на российской сцене
Infidel
ЦИТАТА(Der_Hexer @ Feb 20 2020, 22:59:11) *
Один из самых (если не самый) интересных и качественных Dungeon Synth проектов на российской сцене


Подтверждаю, очень годный проект.
This is a "lo-fi" version of our main content. To view the full version with more information, formatting and images, please click here.
Invision Power Board © 2001-2020 Invision Power Services, Inc.