Help - Search - Members - Calendar
Full Version: Terrifiant - Terrifiant (2020)
Metal Area - Extreme Music Portal > Releases Area / Релизы > New Releases
Samaritianin


*Artist: Terrifiant
*Album: Terrifiant
*Year: 2020
*Genre: Heavy/Speed Metal
*Country: Belgium
*Format: mp3@CBR320kbps
*Size: 72MB

Tracklist:
1. Steel for Life 03:19 instrumental
2. Devil in Transport 03:43
3. Bed Queen 03:41
4. Just Because I Can 04:37
5. Metal and More 05:04
6. Speedline 03:55
7. Iron Mountain 07:16
******************************
Total playing time: 31:35




Extended info
Sniffany Baggs Bass
Alcoloic Drums
Slime Valdi Guitars
Lord TerrifianT Vocals
ZZ Slop Guitars


Technical info

Input File: 04 - Just Because I Can.mp3
Channels : 2
Sample Rate : 44100
Precision : 16-bit
Duration : 00:04:37.13 = 12221213 samples = 20784.4 CDDA sectors
File Size : 11.2M
Bit Rate : 323k
Sample Encoding: MPEG audio (layer I, II or III)
Comments :
Title=Just Because I Can
Artist=Terrifiant
Album=Terrifiant
Tracknumber=04
Year=2020
Genre=Metal
Discnumber=1



[ Hidden Text ]
ANGELUSARCHDAEMON1979
Sounds interesting
smes
а где 8 песня ?
This is a "lo-fi" version of our main content. To view the full version with more information, formatting and images, please click here.
Invision Power Board © 2001-2020 Invision Power Services, Inc.