Help - Search - Members - Calendar
Full Version: Psykotribe - The Devil's Complex (2020)
Metal Area - Extreme Music Portal > Releases Area / Релизы > New Releases
Samaritianin


*Artist: Psykotribe
*Album: The Devil's Complex
*Year: 2020
*Genre: Modern Death/Thrash Metal
*Country: United States
*Format: mp3@CBR320kbps
*Size: 94MB

Tracklist:
01. Live eviL
02. Lord of Death
03. Faceless Killers
04. Devil’s Complex
05. Left Behind
06. Take Control
07. End It
08. Vengeance
09. Wicked White Lies
10. River of Knives
******************************
Total playing time: 40:52



Extended info
Dana Darkly ~ Vocals
Jakob Sin ~ Vocals
Chris Lewis ~ Lead Guitar
John Williams ~ Lead Guitar
Jamez Madness ~ Rhythm Guitar
Chad Zielesch ~ Bass
Adam Zielesch ~ Drums


Technical info

Input File: 02. Lord of Death.mp3
Channels : 2
Sample Rate : 44100
Precision : 16-bit
Duration : 00:04:58.21 = 13150929 samples = 22365.5 CDDA sectors
File Size : 12.0M
Bit Rate : 322k
Sample Encoding: MPEG audio (layer I, II or III)
Comments :
Title=Lord of Death
Artist=Psykotribe
Album=The Devil's Complex
Tracknumber=2
Year=2020
Discnumber=1



[ Hidden Text ]
DenisKov
Третьесорт.
Aectan
Да, скучный весьма альбом.
This is a "lo-fi" version of our main content. To view the full version with more information, formatting and images, please click here.
Invision Power Board © 2001-2020 Invision Power Services, Inc.