*Artist: Beast Within The Sound
*Album: ... And Vice Versa
*Year: 2018
*Genre: Groove Metal/Metalcore
*Country: Czech Republic
*Format: mp3@CBR192kbps
*Size: 71MB

Tracklist:
1. Cisplatin
2. ... and Vice Versa
3. The Ordeal
4. Esprit de Corps
5. 52116
6. ScapeGoat
7. Metal Is Texas
8. About the Truth and Love
9. Pros'n'Cons
10. Behind the Gravestones
11. If I Were Me
12. Winter Gates
13. The Beacon
******************************
Total playing time: 51:53

Bandzone


Technical info

Input File: 02 ...And Vice Versa.mp3
Channels : 2
Sample Rate : 44100
Precision : 16-bit
Duration : 00:04:45.36 = 12584420 samples = 21402.1 CDDA sectors
File Size : 6.84M
Bit Rate : 192k
Sample Encoding: MPEG audio (layer I, II or III)
Comments :
Artist=Beast Within The Sound
Album=...And Vice Versa
Year=2018
Genre=Metal



[ Hidden Text ]