*Artist: Obsecration
*Album: I Am An Odious Ghoul [demo]
*Year: 1996
*Genre: Death Metal
*Country: Greece
*Format: mp3@CBR192kbps
*Size: 11MB

Tracklist:
1. I Am An Odious Ghoul 03:57
2. My Vision And My Dream 04:19
******************************
Total playing time: 8:16




Technical info

Input File: 01-I Am An Odious Ghoul.mp3
Channels : 2
Sample Rate : 44100
Precision : 16-bit
Duration : 00:03:57.09 = 10455581 samples = 17781.6 CDDA sectors
File Size : 5.69M
Bit Rate : 192k
Sample Encoding: MPEG audio (layer I, II or III)
Comments :
Title=I Am An Odious Ghoul
Artist=Obsecration
Album=I Am an Odious Ghoul (Demo)
Tracknumber=01
Year=1996
Genre=22



[ Hidden Text ]