*Artist: Teratolith
*Album: Eclipse I [ep]
*Year: 2019
*Genre: Black/Death Metal/Ambient
*Country: United States
*Format: mp3@CBR320kbps
*Size: 55MB

Tracklist:
01. One. Death. 05:56
02. Two. 08:08
03. Three. The Oracle. 05:50
04. Four. Misericordia. 03:02
******************************
Total playing time: 22:56




Technical info

Input File: 01. One. Death..mp3
Channels : 2
Sample Rate : 44100
Precision : 16-bit
Duration : 00:05:56.64 = 15727956 samples = 26748.2 CDDA sectors
File Size : 14.3M
Bit Rate : 322k
Sample Encoding: MPEG audio (layer I, II or III)
Comments :
Title=One. Death.
Artist=Teratolith
Album=Eclipse I
Tracknumber=1
Year=2019



[ Hidden Text ]