*Artist: Suum
*Album: Cryptomass
*Year: 2020
*Genre: Doom Metal
*Country: Italy
*Format: mp3@CBR320kbps
*Size: 133MB

Tracklist:
1.Cryptomass 08:47
2.The Silence of Agony 05:17
3.Creatures from the Vault 06:20
4.Funeral Circle 06:23
5.Burial at Night 07:35
6.The Failure of Creation 05:27
7.Mass in the Catacomb 02:21
8.Claws of Evil 04:56
9.Reaper Looks in Your Eyes 08:10
******************************
Total playing time: 55:16



Extended info
Line - up:

Painkiller - Guitars (Fangtooth, Occultator, ex-Exhuman)
Mark Wolf - Vocals (Bretus, Land of Hate, ex-Uranium 235, ex-A Buried Existence, ex-Zora)
Joe Grave - Bass
Fed Kemper - Drums

https://www.metal-archives.com/images/3/5/4/0/3540437077_photo.jpg?5745


Technical info

Input File: 05 - Burial at Night.mp3
Channels : 2
Sample Rate : 44100
Precision : 16-bit
Duration : 00:07:35.37 = 20081729 samples = 34152.6 CDDA sectors
File Size : 18.3M
Bit Rate : 321k
Sample Encoding: MPEG audio (layer I, II or III)
Comments :
Title=Burial At Night
Artist=Suum
Album=Cryptomass
Tracknumber=5
Year=2020
Genre=Doom Metal



[ Hidden Text ]