Help - Search - Members - Calendar
Full Version: Panzergoat - Selfdestruction Anthems (2020)
Metal Area - Extreme Music Portal > Releases Area / Релизы > Archive
VLADISLAV_V_K


*Artist: Panzergoat
*Album: Selfdestruction Anthems
*Year: 2020
*Genre: Black Metal/Crust/Nekropunk
*Country: Russian Federation
*Format: mp3@CBR320kbps
*Size: 95MB

Tracklist:
01. Knife Worship
02. Thoughts Of Suicidal Freak
03. Fuck You All
04. Violence Master
05. Rain Of Pain
06. Nekroterror
07. Churching
08. Hurricane
09. Endless Suffering
10. Infernal Hangover
11. Zum Kotzen
12. Grime
******************************
Total playing time: 41:29

Preview 1

Preview 3

Extended info
Коллектив, собранный из бывших членов RAGE IN SILENCE, PAIN AGAIN, GRAVESIDE и прочих адовых актов, с целью исполнять черный металл в своем восприятии. Путем надругательств над системой построения композиций и жанровым скудоумием, каждый из членов команды привносит в творчество все своё безумие, нигилизм и бредовые фантазии, превращая музыку в ритуалы шумового насилия.
Стилистические рамки стерты, каноны любых жанров отправлены далеко и навсегда.
Команда Panzergoat никого ни к чему не обязывает и ни к чему не призывает и также не ставит целью оскорбление чьих-либо религиозных, национальных и этических чувств.
Давайте оставим политические и религиозные и антирелигиозные тенденции тем, кто не занимается музыкальной и творческой деятельностью.
В группе успешно уживаются представители разных религиозных конфессий и национальностей.
Из всех возможных пропаганд, мы в состоянии поддержать только здравый рассудок и творческую работу мозга.
Любые обвинения по поводу осквернений и оскорблений - всего лишь плод фантазий оскорбившегося.
Да пребудет с Вами сила, все ваши Боги и тотальный звуковой беспредел.

Lineup:
Johny - guitar
Bunja - vocals
Franke - drums
Dime - bass


Technical info

Input File: 12-Grime.mp3
Channels : 2
Sample Rate : 44100
Precision : 16-bit
Duration : 00:03:47.10 = 10015022 samples = 17032.4 CDDA sectors
File Size : 9.09M
Bit Rate : 320k
Sample Encoding: MPEG audio (layer I, II or III)
Comments :
Title=Grime
Artist=Panzergoat
Album=Selfdestruction Anthems
Tracknumber=12
Year=2020
Genre=Black Metal / Crust Punk



[ Hidden Text ]
KKK1488
Только ссыкуны могут написать такое послание! метализды хреновы! У всех успели попросить прощения? а у чеченцев, аль-каиды, моссада и госдепа? прям заел меня тот кусок из обращения группы "сатанистов" с просьбами о прощении. Даже слушать не буду. А так хотел.
Black Cat
Да это же просто шапка группы из вкшеньки. Видимо пытались ее прикрыть, как всегда.
Redsun9
Отличный альбом. Был на концертах в Мск - жгут по дикому. Весьма жирная команда.
This is a "lo-fi" version of our main content. To view the full version with more information, formatting and images, please click here.
Invision Power Board © 2001-2022 Invision Power Services, Inc.