Help - Search - Members - Calendar
Full Version: Assassination - Preparing Lucifers Arrival (2020)
Metal Area - Extreme Music Portal > Releases Area / Релизы > New Releases > Unformat R:
Daale


*Artist: Assassination
*Album: Preparing Lucifers Arrival
*Year: 2020
*Genre: Psychedelic Rock
*Country: Germany
*Format: mp3@CBR320kbps
*Size: 44MB

Tracklist:
01. The Bloodline 04:50
02. The Wish 05:02
03. The Darkness 05:56
04. S.A.T.A.N. 01:44
******************************
Total playing time: 17:32



Extended info
Personal purchase


Technical info

Input File: Assassination - Preparing Lucifers Arrival - 02 The Wish.mp3
Channels : 2
Sample Rate : 44100
Precision : 16-bit
Duration : 00:05:02.96 = 13360448 samples = 22721.9 CDDA sectors
File Size : 12.3M
Bit Rate : 326k
Sample Encoding: MPEG audio (layer I, II or III)
Comments :
Title=The Wish
Artist=Assassination
Album=Preparing Lucifers Arrival
Tracknumber=2
Year=2020



[ Hidden Text ]
vosmidesijatye
Быстро они пирожки пекут...
atom72
Оп, свежак, не знал о выходе, прошлый прямо фаворит 2019 был.
Moonshtook
ЦИТАТА(vosmidesijatye @ Feb 27 2020, 21:03:39) *
Быстро они пирожки пекут...

Там один повар, не они
Daale
atom72, Да я сам сегодня случайно наткнулся
vosmidesijatye
ЦИТАТА(Daale @ Feb 28 2020, 00:06:05) *
Да я сам сегодня случайно наткнулся


И тут же быро купил bye.gif 25.gif
Wail
Great band along with Black Magick ss & Edelweiss
Thanks for sharing this
Ghostb
ЦИТАТА(atom72 @ Feb 27 2020, 20:09:15) *
свежак, не знал о выходе, прошлый прямо фаворит 2019 был

Коротковат только свежак оказался)
Der_Hexer
У меня от This is Kali Yuga еще ментальный оргазм не прошел, а тут уже новенькое!
Если резюмировать кратко: Как всегда великолепно pray.gif но мало 21.gif
Fryz
А почему этих можно, а Black Magick SS нельзя? Из-за названия?
Chasm
Более удачный из двух прошлого года альбомов. (Лучше б он им и ограничился, а SotМ довёл до ума подольше...) Если 4 трэка на 17 минут вообще тянут на альбом.
This is a "lo-fi" version of our main content. To view the full version with more information, formatting and images, please click here.
Invision Power Board © 2001-2021 Invision Power Services, Inc.