Help - Search - Members - Calendar
Full Version: Winternius - Open The Portal (2020)
Metal Area - Extreme Music Portal > Releases Area / Релизы > Archive
Samaritianin


*Artist: Winternius
*Album: Open The Portal
*Year: 2020
*Genre: Black Metal
*Country: Italy
*Format: mp3@CBR320kbps
*Size: 116MB

Tracklist:
1. Earthquake 06:02
2. Birds of Destruction 04:15
3. Dead and Evil 05:21
4. Blood Bones Death 04:58
5. Open the Portal 07:41
6. Eternal Starlight 04:27
7. Infernal Oak 06:16
8. Knight of Death and Life 03:48
9. Thunderfire 06:58
******************************
Total playing time: 49:46




Extended info
John KillerBob Bass
See also: Dynabyte, Killers Lodge, ex-Raza de Odio, ex-Cadaveria, ex-Necrodeath
Jaco Eligor Drums
See also: Hastur, Powerdrive, Malignance (live), ex-Sacradis
Alex Trivex Guitars
See also: Devastation Inc., ex-Hastur
Roby Grinder Guitars
See also: Hastur, Powerdrive, ex-Sfregio, ex-Sacradis
Jason Ulfe Vocals
See also: ex-Expiatoria


Technical info

Input File: 03 - Dead and Evil.mp3
Channels : 2
Sample Rate : 44100
Precision : 16-bit
Duration : 00:05:21.59 = 14182031 samples = 24119.1 CDDA sectors
File Size : 13.1M
Bit Rate : 326k
Sample Encoding: MPEG audio (layer I, II or III)
Comments :
Title=Dead and Evil
Artist=Winternius
Album=Open the Portal
Tracknumber=3
Year=2020



[ Hidden Text ]
Samaritianin
Cloud Mail 320
[ Hidden Text ]
Bloodn Lord
Господи, сперва прочитал Винтерсан, чуть не обделался)))
Samaritianin
ЦИТАТА(Bloodn Lord @ 11th March 2020 - 13:37:07) *
сперва прочитал Винтерсан, чуть не обделался)))

Учись читать правильно или держи под рукой памперсы))
isvili
ЦИТАТА(Bloodn Lord @ Mar 11 2020, 13:37:07) *
Господи, сперва прочитал Винтерсан, чуть не обделался)))

Сейчас Винтерсан такое выпускает что обделаться просто не реально.
Alexis The Best
ЦИТАТА(Samaritianin @ 11th March 2020 - 11:59:04) *
Jaco Eligor Drums
See also: Hastur, Powerdrive, Malignance (live), ex-Sacradis

Roby Grinder Guitars
See also: Hastur, Powerdrive, ex-Sfregio, ex-Sacradis

срочно качаю: Sacradis очень люблю!
This is a "lo-fi" version of our main content. To view the full version with more information, formatting and images, please click here.
Invision Power Board © 2001-2020 Invision Power Services, Inc.