*Artist: Scheissegal
*Album: Freunde Der Nacht
*Year: 1997
*Genre: Thrash Metal
*Country: Germany
*Format: mp3@CBR192kbps
*Size: 93MB

Tracklist:
1. Du 04:59
2. Dammbruch '91 04:06
3. Come With Me 05:10
4. The Killing Has Begun 06:18
5. Meine Axt Und Ich 05:22
6. Freunde Der Nacht 06:58
7. Max Anders 07:43
8. Terror 04:43
9. Scheißegal 02:29
10. Söldner Des Todes 06:22
11. Fünf Nach Zwölf 10:03
12. Blau 01:21
13. Mehr Bier!!! 03:07
14. Dreck 00:05
15. Dreck 00:03
******************************
Total playing time: 1:08:49

Extended info
The band name is a German adjective that can be translated as "doesn't fucking matter".


Technical info

Input File: 01-Du.mp3
Channels : 2
Sample Rate : 44100
Precision : 16-bit
Duration : 00:04:57.99 = 13141491 samples = 22349.5 CDDA sectors
File Size : 7.15M
Bit Rate : 192k
Sample Encoding: MPEG audio (layer I, II or III)
Comments :
Title=Du
Artist=Scheissegal (Ger)
Album=Freunde der Nacht
Tracknumber=01
Year=1997
Genre=Thrash Metal



[ Hidden Text ]