Help - Search - Members - Calendar
Full Version: Halén - Idleness (2020)
Metal Area - Extreme Music Portal > Releases Area / Релизы > Archive
Gelukas


*Artist: Halén
*Album: Idleness
*Year: 2020
*Genre: Power Metal
*Country: Sweden
*Format: mp3@CBR320kbps
*Size: 92MB

Tracklist:
1. There´s no Use 04:48
2. Daydream 03:39
3. Tears 04:49
4. Empire 05:19
5. Labyrinth 05:02
6. Dreams 04:44
7. AnyMore 02:47
8. Wonders 04:19
9. Blown Away 04:28
******************************
Total playing time: 39:55




Technical info

Input File: 02. Daydream.mp3
Channels : 2
Sample Rate : 44100
Precision : 16-bit
Duration : 00:03:39.37 = 9673997 samples = 16452.4 CDDA sectors
File Size : 8.83M
Bit Rate : 322k
Sample Encoding: MPEG audio (layer I, II or III)
Comments :
Title=Daydream
Artist=Halén
Album=Idleness
Tracknumber=2/9
Year=2020
Genre=17
Discnumber=1/1



[ Hidden Text ]
kiol1
https://www.youtube.com/watch?v=tTwR6raWRkg
sadmannn
Stratovarius 90-х, усердно косят, как вокалом так и музыкой. Ну, может кому сейчас такое и нужно, учитывая практически полное опустошение в жанре
+ ATheisT +
ЦИТАТА(sadmannn @ Apr 18 2020, 10:09:34) *
Stratovarius 90-х, усердно косят, как вокалом так и музыкой. Ну, может кому сейчас такое и нужно, учитывая практически полное опустошение в жанре


что толку в таком копировании, если нет материала как в шедевральном "Episode" (1996), так себе, обычные подражатели.
Я считаю что нет музыки для "тогда" и для "сейчас", музыка либо качественная, либо нет, первую будут слушать поколениями, а о второй быстро забудут.
keeperofmetal
Great singer from Sweden!
This is a "lo-fi" version of our main content. To view the full version with more information, formatting and images, please click here.
Invision Power Board © 2001-2024 Invision Power Services, Inc.