Help - Search - Members - Calendar
Full Version: Mantar - Grungetown Hooligans Ii (2020)
Metal Area - Extreme Music Portal > Releases Area / Релизы > Archive
necroscum


*Artist: Mantar
*Album: Grungetown Hooligans Ii
*Year: 2020
*Genre: Sludge/Black Metal
*Country: Germany
*Format: mp3@CBR320kbps
*Size: 56MB

Tracklist:
01. The Bomb (L7 cover) 02:52
02. Puss (The Jesus Lizard cover) 03:10
03. 100% (Sonic Youth cover) 02:21
04. Ghost Highway (Mazzy Star cover) 03:32
05. Can I Run (L7 cover) 03:58
06. Bruise Violet (Babes In Toyland cover) 02:37
07. Who You Drivin' Now (Mudhoney cover) 02:09
08. Knot (7 Year Bitch cover) 03:10
******************************
Total playing time: 23:49





Technical info

Input File: 02 Puss.mp3
Channels : 2
Sample Rate : 44100
Precision : 16-bit
Duration : 00:03:16.92 = 8684216 samples = 14769.1 CDDA sectors
File Size : 7.88M
Bit Rate : 320k
Sample Encoding: MPEG audio (layer I, II or III)
Comments :
Title=Puss
Artist=Mantar
Album=Grungetown Hooligans II
Tracknumber=02/08
Year=2020-20-20
Discnumber=1/1



[ Hidden Text ]
Dantalian
облога улётная. Я сперва подумал, что это какой-то провинциальный рэп-альбом gop_spb.gif
дивин
По сути это гранж. И альбом из каверов на всяческий гранж\альтернативный рок, что в эпоху курта кобэйна всплыл. Для разнообразия интересно, но не сказал бы, что это в формат вписывается.
downinahole
Gracias
deathic
Please, re-upload.
This is a "lo-fi" version of our main content. To view the full version with more information, formatting and images, please click here.
Invision Power Board © 2001-2024 Invision Power Services, Inc.