*Artist: Just Before Dawn
*Album: Who Knows What The Dark Brings [ep]
*Year: 2020
*Genre: Old School Death Metal
*Country: Sweden
*Format: mp3@CBR320kbps
*Size: 37MB

Tracklist:
01. Who Knows What the Dark Brings
02. Goliath Revived
03. Before the Fall
******************************
Total playing time: 15:35




Technical info

Input File: 02. Goliath Revived.mp3
Channels : 2
Sample Rate : 44100
Precision : 16-bit
Duration : 00:04:39.45 = 12323745 samples = 20958.8 CDDA sectors
File Size : 11.4M
Bit Rate : 327k
Sample Encoding: MPEG audio (layer I, II or III)
Comments :
Title=Goliath Revived
Artist=Just Before Dawn
Album=Who Knows What the Dark Brings
Tracknumber=2
Year=2020
Genre=OSDM



[ Hidden Text ]