Help - Search - Members - Calendar
Full Version: Manyac - Death Sentence For Tomorrow (2020)
Metal Area - Extreme Music Portal > Releases Area / Релизы > Archive
Samaritianin


*Artist: Manyac
*Album: Death Sentence For Tomorrow
*Year: 2020
*Genre: Melodic Thrash Metal
*Country: Slovakia
*Format: mp3@CBR320kbps
*Size: 105MB

Tracklist:
1. D.S.F.T. 04:27
2. Tears of Baghdad 05:40
3. March of the Dead 04:57
4. Fuck Them! 03:45
5. Leadershit 04:33
6. ...and the Loop Swings in the Wind 04:16
7. Conclave of Demons 08:00
8. Speed Campaign 03:39
9. Into the War 06:55
******************************
Total playing time: 46:12


Preview 2


Extended info
Martin Horňáček - vocals
Michal 'Košťo' Košťalik - guitar, vocals
Peter Palánky - guitar, vocals
Richard Prešinský - bass
Juraj Kolárik - drums


Technical info

Input File: 05 - Leadershit.mp3
Channels : 2
Sample Rate : 44100
Precision : 16-bit
Duration : 00:04:33.17 = 12046709 samples = 20487.6 CDDA sectors
File Size : 10.9M
Bit Rate : 320k
Sample Encoding: MPEG audio (layer I, II or III)
Comments :
Title=Leadershit
Artist=Manyac
Album=Death Sentence For Tomorrow
Tracknumber=5
Year=2020
Genre=Thrash Metal



[ Hidden Text ]
Ice Gnoll
Не теша особых надежд, полез на Бэндкэмп послушать шо цэ за мелодик трэш такой. К удивлению обнаружил достаточно качественный и приятный олдскульчик. Уши растут явно из Kreator. И хоть материал вторичен, ни капли не пожалел о потраченном на знакомство времени. Спасибо.
andris
Ice Gnoll спасибо за наводку тоже норм зашли ! единственное вокал раздражает!
Andrew
Сыграно неплохо, но вот вокал и манера исполнения не понравились.
This is a "lo-fi" version of our main content. To view the full version with more information, formatting and images, please click here.
Invision Power Board © 2001-2024 Invision Power Services, Inc.