Help - Search - Members - Calendar
Full Version: Голос Омерики - Чехословакия (2020)
Metal Area - Extreme Music Portal > Releases Area / Релизы > New Releases > Unformat R:
KVRT


*Artist: Голос Омерики
*Album: Чехословакия
*Year: 2020
*Genre: Ska, Punk
*Country: Russian Federation
*Format: mp3@CBR320kbps
*Size: 129MB

Tracklist:
01.Как ох@нно нигде не работать 3:57
02.Министр культуры 3:38
03.Чёрный плащ 2:49
04.Мизантроп 3:29
05.Русская трэшня 3:32
06.Звук – говно, пиво дорогое! 3:39
07.Тёплая китайская куртка 3:18
08.Спецотряд ЧУМА 3:58
09.Знаем, плавали! 3:25
10Овердох@ища 3:54
11.ВММХЗК 3:50
12.Поле чудес 4:11
13.Чехословакия 4:09
14.Родина 4:30
15.Чёрный плащ Кабаре–версия 3:46
******************************
Total playing time: 56:05

Preview 1
Preview 2
Preview 3

Extended info
About
"Golos Omeriki" was founded in 2004 in Moscow. Alco - chanson - cabaret - punk!



Technical info

Input File: 02. Министр культуры.mp3
Channels : 2
Sample Rate : 44100
Precision : 16-bit
Duration : 00:03:38.15 = 9620415 samples = 16361.2 CDDA sectors
File Size : 8.79M
Bit Rate : 322k
Sample Encoding: MPEG audio (layer I, II or III)
Comments :
Title=Министр культуры
Artist=Голос Омерики
Album=Чехословакия
Tracknumber=2/15
Year=2020
Genre=121
Discnumber=1/1



[ Hidden Text ]
Vitald
Послушать под пивас и мумию рыбы - поржать --- нормально катит такая г0вно-шнуровская калька.
Baudolino
ЦИТАТА(Vitald @ Oct 6 2020, 11:21:12) *
г0вно-шнуровская калька.

Да не. Тут скорее калька на другую команду, название которой я запамятовал. Они еще пели : "девчонки полюбили не меня, девчонки полюбили говнаря", ну или как-то так.
sabr
Отличная банда,-спасибо большое!
Vitald
ЦИТАТА(Baudolino @ Oct 6 2020, 09:58:08) *
Да не. Тут скорее калька на другую команду, название которой я запамятовал. Они еще пели : "девчонки полюбили не меня, девчонки полюбили говнаря", ну или как-то так.

Быть может... не принципиально.
Я не силён в пУнке, потому как не ф0нат ни разу. Послушал из-за названия группца и поржал с содержимого. Одноразово в моём случае.
Вторая телега про министра культуры женского рода ржачная получилась, беспесты фнатуре.

zyklon
Сегодня вышел новый EP - Уздечка, мож есть у кого?

Эй красота, вынь 3алупу изо рта! 1488.gif
sabr
ЦИТАТА(zyklon @ Apr 16 2021, 19:53:45) *
Сегодня вышел новый EP - Уздечка, мож есть у кого?

Эй красота, вынь 3алупу изо рта! 1488.gif

из сети
https://cloud.mail.ru/public/5ctJ/fjjyaWAbM
This is a "lo-fi" version of our main content. To view the full version with more information, formatting and images, please click here.
Invision Power Board © 2001-2021 Invision Power Services, Inc.