Help - Search - Members - Calendar
Full Version: Vagina Witchcraft - Vagina Witchcraft (2020)
Metal Area - Extreme Music Portal > Releases Area / Релизы > Archive
Oath19


*Artist: Vagina Witchcraft
*Album: Vagina Witchcraft
*Year: 2020
*Genre: Doom Metal
*Country: Canada
*Format: mp3@CBR320kbps
*Size: 90MB

Tracklist:
01. Intro (04:23)
02. Mercury (06:53)
03. Pyro (04:54)
04. Starting Over (06:06)
05. No Sinners (08:22)
06. Alvvays (08:39)
******************************
Total playing time: 39:17



Technical info

Input File: 02 - Mercury.mp3
Channels : 2
Sample Rate : 44100
Precision : 16-bit
Duration : 00:06:52.00 = 18169200 samples = 30900 CDDA sectors
File Size : 16.6M
Bit Rate : 323k
Sample Encoding: MPEG audio (layer I, II or III)
Comments :
Title=Mercury
Artist=Vagina Witchcraft
Album=Vagina Witchcraft
Tracknumber=2
Year=2020-20-10
Genre=Doom Metal
Discnumber=1



[ Hidden Text ]
Penetralia
Не забудьте полить помидоры
vosmidesijatye
Ух, арихяналы какия мяталисты эти 15.gif
babanguida
What a noisy crap...
cesar
Внутри по музыке - такой же кусок п*zдятины, что и на обложке!
Кстати, похоже, что белой п*zдятины!
А ещё кричат BLM...
AHBAnep
А не слишком ли лаконично называть этот высер "Doom Metal"?
KVRT
Fronted by genderqueer nonbinary poet & activist Kayla Fernandes
..уверен, спешилли и забылли дописать Vegan*
nsk2008
Для тех, кто захочет скачать из-за Starting Over, сообщаю, что это не кавер на Леннона.
Vitald
Не смешите пиzду - она и так смешная. © 1488.gif
MikkeFFF
Да уж, doom'ом это трудно назвать. Вокал визжащий местами забавен. Музыка порой переходит в панкообразную. Crust детектед
Un4given
По мне так похоже на Rwake. Только с говяным звуком и шаблонными саббатовскими риффами
mardak666
Омг, что на обложке?
VLADISLAV_V_K
thenecromancer
QUOTE(babanguida @ Oct 20 2020, 20:28:29) *
What a noisy crap...

I can't disagree, stopped listening after 10 seconds... 22.gif
normal_Homerdisgust3s.png
Oath19
Отличная киска, по олдскулу smile3.gif
Dargaud
А не будь небритой пи*дени на обложке - прошли бы мимо, как в случае с 90% релизов ноунеймов 1488.gif
hammer
ЦИТАТА(Dargaud @ Oct 22 2020, 00:58:23) *
А не будь небритой пи*дени на обложке - прошли бы мимо, как в случае с 90% релизов ноунеймов 1488.gif
Ее тогда из названия команды убрать надо,а то по любому не прошли бы)
Un4given
вот музыка получше во славу небритых гениталий:
skidnik
Судя по обложке и музыке они перепутали пенициллиновые и псилоцибиновые грибы.
This is a "lo-fi" version of our main content. To view the full version with more information, formatting and images, please click here.
Invision Power Board © 2001-2021 Invision Power Services, Inc.