Help - Search - Members - Calendar
Full Version: Evildead - United $Tate$ Of Anarchy (2020)
Metal Area - Extreme Music Portal > Releases Area / Релизы > New Releases > Lossless
Samaritianin


*Artist: Evildead
*Album: United $Tate$ Of Anarchy
*Year: 2020
*Genre: Thrash Metal
*Country: United States
*Format: mp3@CBR320kbps
*Size: 91MB

Tracklist:
1. The Decending 03:12
2. Word of God 03:04
3. Napoleon Complex 03:08
4. Greenhouse 03:58
5. Without a Cause 03:05
6. No Difference 04:20
7. Blasphemy Divine 02:57
8. A.O.P. / War Dance 05:21
9. Seed of Doubt 05:27
10. Planet Claire 2020 (B-52's cover) 04:03
******************************
Total playing time: 38:35



Extended info
Rob Alaniz Drums
Juan Garcia Guitars
Phil Flores Vocals
Albert Gonzales Guitars
Karlos Medina Bass



Technical info

Input File: 06 - No Difference.mp3
Channels : 2
Sample Rate : 44100
Precision : 16-bit
Duration : 00:04:20.00 = 11466000 samples = 19500 CDDA sectors
File Size : 10.6M
Bit Rate : 328k
Sample Encoding: MPEG audio (layer I, II or III)
Comments :
Title=No Difference
Artist=Evildead
Album=United States of Anarchy
Tracknumber=6
Year=2020
Discnumber=1



[ Hidden Text ]
vosmidesijatye
Ну эт приятные новости, сии ветераны жгли напалмом в своё время. 27.gif
noxspiritus
Evildead в свое время были на задворках, сейчас они особо тоже не продвинулись. Шаблонный трешак и не более
babanguida
Polished anarchy with overmixed vocals. Nevertheless the good thing is that zZzzZzZZZzzzzz
kessler
О, йопт, сплошные камбэки. Слуханем.
sadmannn
по юности, да, вставляла группа
сейчас послушал..нет, на таком звуке и с таким материалом я это уже не воспринимаю
troll_swamp
Ждал и очень доволен, всё как надо, если учесть что прошло много времени и такое настроение многие уже растеряли, но не эти парни и это хорошо.
Для первого прослушивания очень хорошо, логический третий лонгплей, с наработками с первых двух, с фирменными фишками по которым слышно кто перед нами.
Тут писали о задворках), блин, скажу за себя, Evildead как были на одних из главных ролях так там и остаются по сей день и новый альбом тому подтверждение, лично для меня.
Как любили говорить раньше Фирмачи, Фирмачи и есть, отличный альбом.
Спасибо парням что собрались, нашли время и выдали хорошо, ну и Самаритянину кружечку, а то и три 9.gif 9.gif 9.gif
Ну и мне кружечку 9.gif
todesser
Ну, так... Третий сорт - не брак. Дебютник куда интереснее был, а тут все очень вымученно.
quicksand
Шикарный альбомище, прямо в самое сердце стрелу матерого треша мне засандалили pray.gif
Опус, о котором уже и не мечтал, оказался еще и передовым творением. Реюнион, каких мало, с лихвой оправдал свою пригодность.
Сохранив своё лицо, редкие коллективные подпевки, пластичные лид гитары, яркие соляки, они немного осовременили звучание, чуток утяжелились,
жирнючий саунд нарулили, и снабдили запоминающимися мелодиями альбом. Для меня как минимум, песни через одну на роль хитов тянут.
Даже на Rigor mortis местами похожи стали. Отчего я еще больше рад.
А роскошный кавер, так вообще одно удовольствие, как сыграли 20.gif
Это в топ года для меня, без вариантов!
Brutal
Радует наличие классических гитариста и вокалиста, остальное заменимо. Отличный альбом, конечно же, это не откровение, ведь за окном не 80е, но своего слушателя однозначно найдет музыка. да и старые фэны не будут огорчены.
Aectan
Очень неплохой трэшак.
Pioniere
FLAC tracks 300 MB
[ Hidden Text ]
Marek
Lossless reupload please? Thanks a lot.
Borderline1991
[ Hidden Text ]
Brutal
ЦИТАТА(Brutal @ 31st October 2020 - 14:29:33) *
Радует наличие классических гитариста и вокалиста, остальное заменимо. Отличный альбом, конечно же, это не откровение, ведь за окном не 80е, но своего слушателя однозначно найдет музыка. да и старые фэны не будут огорчены.

я не прав, прикупив диск, понял, что почти классический состав с первого альбома, кроме басиста.
Tarelka
нехило однако
This is a "lo-fi" version of our main content. To view the full version with more information, formatting and images, please click here.
Invision Power Board © 2001-2021 Invision Power Services, Inc.