Help - Search - Members - Calendar
Full Version: The Chemical Mind - That Benign Terror (2020)
Metal Area - Extreme Music Portal > Releases Area / Релизы > Archive
vasilisk


*Artist: The Chemical Mind
*Album: That Benign Terror
*Year: 2020
*Genre: Atmospheric/Post-Black Metal
*Country: United States
*Format: mp3@CBR320kbps
*Size: 97MB

Tracklist:
01. Seraphim 05:54
02. Dominion 04:46
03. Simulacrum 04:28
04. Obelisk 02:42
05. Sisters 05:00
06. Nephilim 03:49
07. Apophasis 04:41
08. Ophanim 10:39
******************************
Total playing time: 41:59

Technical info

Input File: 03 - Simulacrum.mp3
Channels : 2
Sample Rate : 44100
Precision : 16-bit
Duration : 00:04:27.59 = 11800719 samples = 20069.2 CDDA sectors
File Size : 10.7M
Bit Rate : 321k
Sample Encoding: MPEG audio (layer I, II or III)
Comments :
Title=Simulacrum
Artist=The Chemical Mind
Album=That Benign Terror
Tracknumber=3
Year=2020
Discnumber=1/1



[ Hidden Text ]
Living_Beat
Опа ничо так стукают пацанчики!!!! Чотенький пост блек в тачилу!!!
TodesGott
This is a "lo-fi" version of our main content. To view the full version with more information, formatting and images, please click here.
Invision Power Board © 2001-2021 Invision Power Services, Inc.