Help - Search - Members - Calendar
Full Version: Druon Antigon - Desontstijging (2020)
Metal Area - Extreme Music Portal > Releases Area / Релизы > Archive
vasilisk


*Artist: Druon Antigon
*Album: Desontstijging
*Year: 2020
*Genre: Black Metal
*Country: United Kingdom
*Format: mp3@CBR320kbps
*Size: 91MB

Tracklist:
01. Zinloos 10:13
02. Herrijzenis 08:45
03. Like Gods 07:36
04. Weavess 12:46
******************************
Total playing time: 39:20

Technical info

Input File: 03 - Like Gods.mp3
Channels : 2
Sample Rate : 44100
Precision : 16-bit
Duration : 00:07:36.20 = 20118596 samples = 34215.3 CDDA sectors
File Size : 18.4M
Bit Rate : 322k
Sample Encoding: MPEG audio (layer I, II or III)
Comments :
Title=Like Gods
Artist=Druon Antigon
Album=Desontstijging
Tracknumber=3
Year=2020
Discnumber=1/1



[ Hidden Text ]
kefka
This is a "lo-fi" version of our main content. To view the full version with more information, formatting and images, please click here.
Invision Power Board © 2001-2021 Invision Power Services, Inc.