Help - Search - Members - Calendar
Full Version: Aphotic Zone - In The Name Of Sorrow (2019)
Metal Area - Extreme Music Portal > Releases Area / Релизы > Archive
Samaritianin


*Artist: Aphotic Zone
*Album: In The Name Of Sorrow
*Year: 2019
*Genre: Atmospheric Doom/Death Metal
*Country: Iran
*Format: mp3@CBR320kbps
*Size: 69MB

Tracklist:
1. Broken Emotions (Intro) 02:34 instrumental
2. Love Is the Only Way 04:42
3. Signs of Misery 03:37
4. Some Minutes to Death 05:53
5. Night Gates 05:17
6. Cold Morning 03:59
7. Rain and Tears 04:11
******************************
Total playing time: 30:13



Extended info
Mohammadreza Alvari Everything


Technical info

Input File: 05 - Night Gates.mp3
Channels : 2
Sample Rate : 44100
Precision : 16-bit
Duration : 00:05:17.06 = 13982170 samples = 23779.2 CDDA sectors
File Size : 12.7M
Bit Rate : 321k
Sample Encoding: MPEG audio (layer I, II or III)
Comments :
Title=Night Gates
Artist=Aphotic Zone
Album=In The Name Of Sorrow
Tracknumber=05
Year=2019
Genre=Atmospheric Doom Metal



[ Hidden Text ]
GRAF
Режущий слух звук из Ирана. Не знаю, как вот это вот, можно обозвать "Atmospheric Doom Death Metal".
KVRT
приятные инструментальные пассажи, вокал - сумбурный, но общей картины не портит.. а вот, кассательно гитарных секций - скудненько.. но как для однолюдного проекта, в добавок из ирана... аранжировка и сведение материала наталкивает на параллели с Filosofem 1488.gif
конечно жэ, не номиминант на признание года, но и внимания обязан быть удостоен
avather
Нормас. Слушать интересно
Kitalter
нормально, хоть и не зацепили
This is a "lo-fi" version of our main content. To view the full version with more information, formatting and images, please click here.
Invision Power Board © 2001-2021 Invision Power Services, Inc.