Help - Search - Members - Calendar
Full Version: Vormläss - Passacaglia (2020)
Metal Area - Extreme Music Portal > Releases Area / Релизы > Archive
Necrokilldozer


*Artist: Vormläss
*Album: Passacaglia
*Year: 2020
*Genre: Atmospheric Black/Doom/Heavy Metal
*Country: United States
*Format: mp3@CBR320kbps
*Size: 64MB

Tracklist:
1. Hallowed Halls 03:06
2. Wicked Heart 04:01
3. Corroded 08:22
4. Intermezzo 01:36 instrumental
5. Reflection 04:41
6. Sleepers Awake 05:14
******************************
Total playing time: 27:00



Extended info
FLAC RIP


Technical info

Input File: 02. Wicked Heart.mp3
Channels : 2
Sample Rate : 44100
Precision : 16-bit
Duration : 00:04:01.96 = 10670524 samples = 18147.1 CDDA sectors
File Size : 9.68M
Bit Rate : 320k
Sample Encoding: MPEG audio (layer I, II or III)
Comments :
Title=Wicked Heart
Artist=Vormlass
Album=Passacaglia
Tracknumber=2
Year=2020
Genre=Atmospheric Black/Doom/Heavy Metal



[ Hidden Text ]
Olrak
Кхе-кхе, стесняюсь спросить, а в каком здесь треке можно послушать перечисленные муз направления?: Atmospheric Black/Doom/Heavy Metal hmm.gif

Псы,
А тема кстати любопытная! smile4.gif
дивин
Тэги в bandcamp ближе к сути: deep purple/hard rock/iron maiden/pink floyd/uriah heep/heavy metal/prog rock/psychedelic.
Обложка, в стиле вырви глаз, напоминает логотип какой-нибудь христианской воскресной школы.
judaz
Теги конечно ни в звезду, ни в красную армию.
Больше всего это напоминает Queens of the Stone Age, которые ударились в психоделию.
This is a "lo-fi" version of our main content. To view the full version with more information, formatting and images, please click here.
Invision Power Board © 2001-2022 Invision Power Services, Inc.