Help - Search - Members - Calendar
Full Version: Medenera - Argento (2020)
Metal Area - Extreme Music Portal > Releases Area / Релизы > Archive
Samaritianin


*Artist: Medenera
*Album: Argento
*Year: 2020
*Genre: Atmospheric Black Metal
*Country: Italy
*Format: mp3@CBR320kbps
*Size: 173MB

Tracklist:
01. Argentea I
02. Argentea II
03. Argentea III
04. Tempora veris I
05. Tempora veris II
06. Tempora veris III
07. Frigida ventis I
08. Frigida ventis II
09. Frigida ventis III
10. Igneus I
11. Igneus II
12. Igneus III
13. Ghost Track
******************************
Total playing time: 1:08:07




Extended info
CD-Rip+scans


Technical info

Input File: 07. Frigida Ventis I.mp3
Channels : 2
Sample Rate : 44100
Precision : 16-bit
Duration : 00:05:31.89 = 14636525 samples = 24892 CDDA sectors
File Size : 13.3M
Bit Rate : 320k
Sample Encoding: MPEG audio (layer I, II or III)
Comments :
Title=Frigida Ventis I
Artist=Medenera
Album=Argento
Tracknumber=07
Year=2020
Genre=Atmospheric Black Metal



[ Hidden Text ]
Olrak
Приятная музыка! Утяжелённая Энигма, так сказать... Работать под такую хорошо! smile4.gif
This is a "lo-fi" version of our main content. To view the full version with more information, formatting and images, please click here.
Invision Power Board © 2001-2022 Invision Power Services, Inc.