Help - Search - Members - Calendar
Full Version: Chaos Sculptor - Chaos Sculptor (2020)
Metal Area - Extreme Music Portal > Releases Area / Релизы > Archive
vasilisk


*Artist: Chaos Sculptor
*Album: Chaos Sculptor
*Year: 2020
*Genre: Black/Death Metal
*Country: United States
*Format: mp3@CBR320kbps
*Size: 130MB

Tracklist:
1. Fatal Misanthropy
2. The 12th Equilibrium
3. Suffering the Modern Day
4. Dismembering the Predator
5. Five Points to Augment
6. Ruling Through Vampyric Miasma
7. Cast My Soul Away
8. Trial of the Merciless
9. Annihilation Archetype
10. Time is a Flat Circle
******************************
Total playing time: 56:06

Technical info

Input File: 04 - Dismembering the Predator.mp3
Channels : 2
Sample Rate : 44100
Precision : 16-bit
Duration : 00:04:08.49 = 10958541 samples = 18637 CDDA sectors
File Size : 10.2M
Bit Rate : 327k
Sample Encoding: MPEG audio (layer I, II or III)
Comments :
Title=Dismembering the Predator
Artist=Chaos Sculptor
Album=Chaos Sculptor
Tracknumber=4
Year=2020



[ Hidden Text ]
kefka
This is a "lo-fi" version of our main content. To view the full version with more information, formatting and images, please click here.
Invision Power Board © 2001-2021 Invision Power Services, Inc.