Help - Search - Members - Calendar
Full Version: Tidal Fall - Tidal Fall [ep] (2021)
Metal Area - Extreme Music Portal > Releases Area / Релизы > Archive
Samaritianin


*Artist: Tidal Fall
*Album: Tidal Fall [ep]
*Year: 2021
*Genre: Melodic Death Metal
*Country: United Kingdom
*Format: mp3@CBR320kbps
*Size: 59MB

Tracklist:
1. As the Crow Flies 01:10
2. Redemption 03:42
3. Carved in a Bullet 04:11
4. Barren Heart 03:49
5. Shores of Reflection 04:14
6. Letter to the Mutineer 03:41
7. When the Last Ship Has Sailed 02:17
******************************
Total playing time: 23:04




Technical info

Input File: 05 Shores of Reflection.mp3
Channels : 2
Sample Rate : 44100
Precision : 16-bit
Duration : 00:04:14.63 = 11229139 samples = 19097.2 CDDA sectors
File Size : 11.0M
Bit Rate : 344k
Sample Encoding: MPEG audio (layer I, II or III)
Comments :
Title=Shores of Reflection
Artist=Tidal Fall
Album=Tidal Fall
Tracknumber=5/7
Year=2021-21-20
Genre=Metal
Discnumber=1/1



[ Hidden Text ]
AHBAnep
Chathai Khammol (Guitarist/Songwriter) указал на FB, что он/они из Новой Англии
Впрочем, хрен его знает.

2. Redemption (feat. Tom Englund & Mike Abdow):


И кусочки тут - https://distrokid.com/hyperfollow/tidalfall/tidal-fall
Сварог Барг
Скорее модерн с чистоголосьем, больше одного раза слушать желания не возникло.
Andrew
ЦИТАТА(Сварог Барг @ Jan 22 2021, 16:42:01) *
Скорее модерн с чистоголосьем, больше одного раза слушать желания не возникло.

К сожалению, но так все и есть. Больше двух треков не осилить...
sadmannn
все эти заигрывания с чистым вокалом (типа, модные растакие все) до добра не довели никого, и альттрушная туса не ведется на такой материал особо, и мИталлисты хают
хотя всё просто: ну, хотят парни быть в топе, думают, что у них-то выстрелит...а вот хрен по всей морде
но ценители найдутся
fr47
Melodic Metalcore
DenisKov
Третьесортный KSE.
This is a "lo-fi" version of our main content. To view the full version with more information, formatting and images, please click here.
Invision Power Board © 2001-2021 Invision Power Services, Inc.