*Artist: Exsedum Morcerin
*Album: Dwelling In The Unconsciousness
*Year: 2017
*Genre: Black Metal
*Country: United States
*Format: mp3@CBR320kbps
*Size: 71MB

Tracklist:
1. A Nords Psychotic Journey 05:45
2. False Stories of Elite Status 06:35
3. Bestowed Mystical Uprising 04:37
4. Dwelling in the Unconsciousness 08:34
5. Just Punishment from a Goddess 04:15
******************************
Total playing time: 29:46



Technical info

Input File: Exsedum Morcerin - Dwelling In The Unconsciousness - 02 False Stories Of Elite Status.mp3
Channels : 2
Sample Rate : 44100
Precision : 16-bit
Duration : 00:06:36.04 = 17465276 samples = 29702.9 CDDA sectors
File Size : 15.9M
Bit Rate : 321k
Sample Encoding: MPEG audio (layer I, II or III)
Comments :
Title=False Stories Of Elite Status
Artist=Exsedum Morcerin
Album=Dwelling In The Unconsciousness
Tracknumber=2
Year=2017



[ Hidden Text ]