Help - Search - Members - Calendar
Full Version: Goat - Promo 2020 [demo] (2020)
Metal Area - Extreme Music Portal > Releases Area / Релизы > Archive
smysl


*Artist: Goat
*Album: Promo 2020 [demo]
*Year: 2020
*Genre: Black/Death Metal
*Country: Greece
*Format: mp3@CBR320kbps
*Size: 20MB

Tracklist:
1.Time 01:36
2.Progression To Violence 02:28
3.Extermination 02:11
******************************
Total playing time: 6:15



Technical info

Input File: 02 Progression To Violence.mp3
Channels : 1
Sample Rate : 44100
Precision : 16-bit
Duration : 00:02:28.10 = 6531166 samples = 11107.4 CDDA sectors
File Size : 6.21M
Bit Rate : 336k
Sample Encoding: MPEG audio (layer I, II or III)
Comments :
Title=Progression To Violence
Artist=Goat
Album=Promo 2020
Tracknumber=2
Year=2020
Genre=Black/Death Metal



[ Hidden Text ]
murian
original band name and song titles, unique riffs
This is a "lo-fi" version of our main content. To view the full version with more information, formatting and images, please click here.
Invision Power Board © 2001-2021 Invision Power Services, Inc.