Help - Search - Members - Calendar
Full Version: Visceral Uprooting - 50​.​39​-​square​-​kilometer Mass Grave (2021)
Metal Area - Extreme Music Portal > Releases Area / Релизы > Archive
Necrokilldozer


*Artist: Visceral Uprooting
*Album: 50​.​39​-​square​-​kilometer Mass Grave
*Year: 2021
*Genre: Brutal Death Metal
*Country: France
*Format: mp3@CBR320kbps
*Size: 58MB

Tracklist:
1. Human Manure
2. Ulcerated Trunk
3. Dragging Limbs
4. Raped by Flying Whales (Gojirape)
5. Harvest of Distilled Organs
6. Obstructed Defecation
7. Regurgitation of Intestinal Fluids
8. U.F.O
******************************
Total playing time: 24:13



Extended info
Line - up:
Anthony Guern - Vocals, Guitars, Bass, Drum programming (Cryogenical Excision, Dysmorfectomy, Ulsorasis, ex-Dawn of Might)

Guest/Session:
Félix - Unknown (track 8) (Cryogenical Excision, Inseminate Degeneracy, ex-Dawn of Might, ex-AntiCorpse)



Technical info

Input File: 5. Harvest Of Distilled Organs.mp3
Channels : 2
Sample Rate : 44100
Precision : 16-bit
Duration : 00:02:54.07 = 7676311 samples = 13055 CDDA sectors
File Size : 6.97M
Bit Rate : 320k
Sample Encoding: MPEG audio (layer I, II or III)
Comments :
Title=Harvest Of Distilled Organs
Artist=Visceral Uprooting
Album=50​.​39​-​Square​-​Kilometer Mass Grave
Tracknumber=5
Year=2021
Genre=Brutal Death Metal



[ Hidden Text ]
oathzine
Flac

[ Hidden Text ]
Victim of fate
всё хорошо....прям капельку разнообразия бы....
This is a "lo-fi" version of our main content. To view the full version with more information, formatting and images, please click here.
Invision Power Board © 2001-2021 Invision Power Services, Inc.