Help - Search - Members - Calendar
Full Version: Yaşru - Maral [single] (2019)
Metal Area - Extreme Music Portal > Releases Area / Релизы > Archive
satanist666


*Artist: Yaşru
*Album: Maral [single]
*Year: 2019
*Genre: Doom/Folk Metal
*Country: Turkey
*Format: mp3@CBR256kbps
*Size: 8MB

Tracklist:
01. Maral 04:13
******************************
Total playing time: 4:13

Extended info



Technical info

Input File: 01. Maral.mp3
Channels : 2
Sample Rate : 48000
Precision : 16-bit
Duration : 00:04:15.98 = 12287232 samples ~ 19198.8 CDDA sectors
File Size : 8.68M
Bit Rate : 271k
Sample Encoding: MPEG audio (layer I, II or III)
Comments :
Title=Yaşru - Maral
Artist=Yaşru
Album=Xmp3.net
Tracknumber=01
Genre=Xmp3.net



[ Hidden Text ]
kostja
Правильно, срал и замарал. crazy.gif
Veggr
ЦИТАТА(kostja @ Feb 16 2021, 14:41:19) *
Правильно, срал и замарал. crazy.gif

Yaşru (Яшру) - ,,Таинство" с турецкого.
Сварог Барг
В Россию им на гастроли приезжать явно не стоит.
This is a "lo-fi" version of our main content. To view the full version with more information, formatting and images, please click here.
Invision Power Board © 2001-2021 Invision Power Services, Inc.