Help - Search - Members - Calendar
Full Version: Lughnasadh La Force - Clan De Acero (2021)
Metal Area - Extreme Music Portal > Releases Area / Релизы > Archive
Samaritianin


*Artist: Lughnasadh La Force
*Album: Clan De Acero
*Year: 2021
*Genre: Power Metal
*Country: Argentina
*Format: mp3@CBR320kbps
*Size: 117MB

Tracklist:
1. Intro
2. Bienvenidos al Ritual
3. Clan de Acero
4. Furia Voraz
5. Templanza
6. Naciente del Fuego
7. Victoria
8. Tierra Hostil
9. Muro de Titanes
******************************
Total playing time: 51:47



Extended info
Emanuel Bonacic Kresic Bass (2009-2011), Drums (2011-present)
See also: ex-Arkada
Matías Timpanara Guitars (2009-present)
See also: ex-Arkada
Gabriela Mónaco Vocals (2009-present)
Julián ''Polaco'' Pereyra Vocals (2009-present)
See also: Tempano
Arial ''El Flaken'' Guitars, Vocals (backing) (2011-present)
Pablo Lemos Keyboards (2011-present)
Alejando ''Ale'' Campetta Bass (2012-present)


Technical info

Input File: 07 - Victoria.mp3
Channels : 2
Sample Rate : 44100
Precision : 16-bit
Duration : 00:06:17.07 = 16628875 samples = 28280.4 CDDA sectors
File Size : 15.1M
Bit Rate : 320k
Sample Encoding: MPEG audio (layer I, II or III)
Comments :
Title=Victoria
Artist=Lughnasadh La Force
Album=Clan de Acero
Tracknumber=7
Year=2021



[ Hidden Text ]
Foneg
Испаноязычно, но вполне норм слушается - есть приятные хуковые моменты и неплохой вокал для второго (третьего?) эшелона
This is a "lo-fi" version of our main content. To view the full version with more information, formatting and images, please click here.
Invision Power Board © 2001-2021 Invision Power Services, Inc.