Help - Search - Members - Calendar
Full Version: The Furor - Obliteration Matrix (2021)
Metal Area - Extreme Music Portal > Releases Area / Релизы > Archive
vasilisk


*Artist: The Furor
*Album: Obliteration Matrix
*Year: 2021
*Genre: Black/Death Metal
*Country: Australia
*Format: mp3@CBR320kbps
*Size: 91MB

Tracklist:
01. Surging Curse Assassin
02. Necrorebellion
03. The Hammerstorm Forecast
04. Wrath of Abraxas
05. The Funeral Abominator
06. Titan Demigods Descend
07. Immortal Vortex Rising
08. Destination Damnation
******************************
Total playing time: 39:46

Technical info

Input File: 02. Necrorebellion.mp3
Channels : 2
Sample Rate : 44100
Precision : 16-bit
Duration : 00:04:41.17 = 12399773 samples = 21088 CDDA sectors
File Size : 11.2M
Bit Rate : 320k
Sample Encoding: MPEG audio (layer I, II or III)
Comments :
Title=Necrorebellion
Artist=The Furor
Album=Obliteration Matrix
Tracknumber=02
Year=2021



[ Hidden Text ]
vosmidesijatye
Обложка - полнейший ад. 25.gif
nomadgg1
frostdomain
mp3@CBR 320 kbps [Bandcamp rip]
[ Hidden Text ]
vosmidesijatye
Where the fuck is babanguida?
This is a "lo-fi" version of our main content. To view the full version with more information, formatting and images, please click here.
Invision Power Board © 2001-2021 Invision Power Services, Inc.