Help - Search - Members - Calendar
Full Version: And Now The Owls Are Smiling - The Brooding [ep] (2017)
Metal Area - Extreme Music Portal > Releases Area / Релизы > New Releases > Low Bitrate
satanist666


*Artist: And Now The Owls Are Smiling
*Album: The Brooding [ep]
*Year: 2017
*Genre: Atmospheric/Depressive Black Metal
*Country: United Kingdom
*Format: mp3@CBR128kbps
*Size: 27MB

Tracklist:
01. The Silence 08:58
02. The Guardians 06:25
03. The Ferryman 09:51
04. The Terrible 03:04
******************************
Total playing time: 28:18

Extended info




Technical info

Input File: 01. The Silence.mp3
Channels : 2
Sample Rate : 44100
Precision : 16-bit
Duration : 00:08:58.83 = 23762535 samples = 40412.5 CDDA sectors
File Size : 8.67M
Bit Rate : 129k
Sample Encoding: MPEG audio (layer I, II or III)
Comments :
Title=The Silence
Artist=And Now The Owls Are Smiling
Album=The Brooding (ep)
Tracknumber=01/04
Year=2017
Genre=Atmospheric Black Metal



[ Hidden Text ]
Veggr
320 PLS.
This is a "lo-fi" version of our main content. To view the full version with more information, formatting and images, please click here.
Invision Power Board © 2001-2024 Invision Power Services, Inc.