Help - Search - Members - Calendar
Full Version: Misotheismus - Demo 1 [demo] (2021)
Metal Area - Extreme Music Portal > Releases Area / Релизы > Archive > Low Bitrate Archive (read only)
ITNOR


*Artist: Misotheismus
*Album: Demo 1 [demo]
*Year: 2021
*Genre: Black Metal
*Country: International
*Format: mp3@CBR320kbps
*Size: 28MB

Tracklist:
1. Jag Förbannar Ditt Namn
2. Skändad och Styckad
3. Lögnens Slut
4. Utrota Kristi Följare
******************************
Total playing time: 12:32




Technical info

Input File: 1. Jag Förbannar Ditt Namn.mp3
Channels : 2
Sample Rate : 44100
Precision : 16-bit
Duration : 00:02:58.24 = 7860516 samples = 13368.2 CDDA sectors
File Size : 7.13M
Bit Rate : 320k
Sample Encoding: MPEG audio (layer I, II or III)



[ Hidden Text ]
Vitald
ЦИТАТА
Lyrical themes:
Misotheism, Dystheism, Maltheism


Если абстрагироваться от этой пурги - вполне годно и злобно (тут по определению, хулЕ).
rimfrost
This is a "lo-fi" version of our main content. To view the full version with more information, formatting and images, please click here.
Invision Power Board © 2001-2021 Invision Power Services, Inc.