Help - Search - Members - Calendar
Full Version: Everson Poe - Grief (2021)
Metal Area - Extreme Music Portal > Releases Area / Релизы > New Releases > Lossless
vasilisk


*Artist: Everson Poe
*Album: Grief
*Year: 2021
*Genre: Post-Black Metal
*Country: United States
*Format: mp3@CBR320kbps
*Size: 112MB

Tracklist:
01. Denial 10:43
02. Anger 03:45
03. Bargaining 10:07
04. Depression 14:03
05. Acceptance 10:15
******************************
Total playing time: 48:53

Technical info

Input File: 02 - Anger.mp3
Channels : 2
Sample Rate : 44100
Precision : 16-bit
Duration : 00:03:44.85 = 9915929 samples = 16863.8 CDDA sectors
File Size : 9.07M
Bit Rate : 323k
Sample Encoding: MPEG audio (layer I, II or III)
Comments :
Title=Anger
Artist=Everson Poe
Album=Grief
Tracknumber=2
Year=2021
Discnumber=1/1



[ Hidden Text ]
Dreamtale
popen13
Borderline1991
[ Hidden Text ]
Morra
[ Hidden Text ]
6666666
На что похоже?
This is a "lo-fi" version of our main content. To view the full version with more information, formatting and images, please click here.
Invision Power Board © 2001-2021 Invision Power Services, Inc.