*Artist: Defecrator
*Album: Unholy Hymns Of Bestial Warfare [compilation]
*Year: 2021
*Genre: Death/Black Metal
*Country: United States
*Format: mp3@CBR320kbps
*Size: 125MB

Tracklist:
1.Built Upon Suffering 04:21
2.Vile Apotheosis 03:40
3.Holocaustic Nuclear Rites 02:59
4.Pyrocumulus Baphomet 02:37
5.Praise of Pestilence 03:19
6.Anti-Human Deathcult 04:10
7.Aeonic Totalitarianism 05:11
8.Satanic Martyrdom 04:19
9.Contractionem Diaboli 03:41
10.Thy Infernal Penance 04:22
11.Depredated 03:09
12.Subjugated 04:21
13.Purged 04:10
******************************
Total playing time: 50:19



Technical info

Input File: 01 Built Upon Suffering.mp3
Channels : 2
Sample Rate : 44100
Precision : 16-bit
Duration : 00:04:21.87 = 11548423 samples = 19640.2 CDDA sectors
File Size : 10.7M
Bit Rate : 327k
Sample Encoding: MPEG audio (layer I, II or III)
Comments :
Title=Built Upon Suffering
Artist=Defecrator
Album=Unholy Hymns of Bestial Warfare
Tracknumber=1
Year=2021
Genre=Black/Death Metal



[ Hidden Text ]