*Artist: Irae
*Album: Korona Winter Rehearsal Of Darkness & Evil [live]
*Year: 2021
*Genre: Black Metal
*Country: Portugal
*Format: mp3@CBR320kbps
*Size: 107MB

Tracklist:
1.Nightshade 06:32
2.Black Metal Violador 05:42
3.Ratazanas 05:00
4.A Blaze in the Mist 04:31
5.Between Ruins 05:43
6.Encurralado 06:21
7.O Porco de Satanás 06:51
8.The Return of Darkness & Evil (Bathory cover) 04:59
******************************
Total playing time: 45:39




Technical info

Input File: 01 Nightshade.mp3
Channels : 2
Sample Rate : 44100
Precision : 16-bit
Duration : 00:06:32.10 = 17291434 samples = 29407.2 CDDA sectors
File Size : 15.9M
Bit Rate : 324k
Sample Encoding: MPEG audio (layer I, II or III)
Comments :
Title=Nightshade
Artist=Irae
Album=Korona Winter Rehearsal of Darkness & Evil
Tracknumber=1
Year=2021
Genre=Black Metal



[ Hidden Text ]