*Artist: Drelnoch
*Album: Blatant Disregard [demo]
*Year: 2021
*Genre: Raw Black Metal
*Country: United States
*Format: mp3@CBR320kbps
*Size: 30MB

Tracklist:
1.Infernal Expansion 04:48
2.Silhouettes 02:56
3.Abhorrent Alchemy 02:24
4.Yellowed Bones 02:11
******************************
Total playing time: 12:19



Technical info

Input File: 01 Infernal Expansion.mp3
Channels : 2
Sample Rate : 44100
Precision : 16-bit
Duration : 00:04:48.65 = 12729289 samples = 21648.5 CDDA sectors
File Size : 11.7M
Bit Rate : 324k
Sample Encoding: MPEG audio (layer I, II or III)
Comments :
Title=Infernal Expansion
Artist=Drelnoch
Album=Blatant Disregard
Tracknumber=1
Year=2021
Genre=Black Metal



[ Hidden Text ]