Help - Search - Members - Calendar
Full Version: Noah Angel - Endless Suffering Into The Dark Skies [ep] (2021)
Metal Area - Extreme Music Portal > Releases Area / Релизы > Archive
Cramloth


*Artist: Noah Angel
*Album: Endless Suffering Into The Dark Skies [ep]
*Year: 2021
*Genre: Acoustic/Atmospheric Black Metal
*Country: Canada
*Format: mp3@CBR320kbps
*Size: 87MB

Tracklist:
1. Immortality Of Dark Desire 03:48
2. Solitude 15:06
3. Endless Suffering Into The Dark Skies 18:55
******************************
Total playing time: 37:49




Technical info

Input File: Noah Angel - Solitude.mp3
Channels : 2
Sample Rate : 48000
Precision : 16-bit
Duration : 00:15:06.15 = 43495344 samples ~ 67961.5 CDDA sectors
File Size : 36.2M
Bit Rate : 320k
Sample Encoding: MPEG audio (layer I, II or III)
Comments :
Title=Solitude
Album=Endless Suffering Into The Dark Skies
Tracknumber=2
Year=2021
Genre=Acoustic Black Metal



[ Hidden Text ]
Kyir
Это замечательный альбом, но почему в жанрах стоит блэк? Весь альбом акустический.
Storky
ЦИТАТА(Kyir @ Apr 8 2021, 16:09:42) *
Это замечательный альбом, но почему в жанрах стоит блэк? Весь альбом акустический.

Так принято 1488.gif Горы, Квебек, спокойные мелодии, АБМ релиз от того же ван-мена - и достаточно.
This is a "lo-fi" version of our main content. To view the full version with more information, formatting and images, please click here.
Invision Power Board © 2001-2021 Invision Power Services, Inc.