Help - Search - Members - Calendar
Full Version: Ancient Mastery - The Chosen One [ep] (2021)
Metal Area - Extreme Music Portal > Releases Area / Релизы > Archive
smysl


*Artist: Ancient Mastery
*Album: The Chosen One [ep]
*Year: 2021
*Genre: Atmospheric Black Metal
*Country: Austria
*Format: mp3@CBR320kbps
*Size: 50MB

Tracklist:
1.Shadow Of The Past 05:50
2.To Bear The Sword 05:12
3.The Chosen One 09:42
******************************
Total playing time: 20:44



Technical info

Input File: 02 To Bear The Sword.mp3
Channels : 2
Sample Rate : 44100
Precision : 16-bit
Duration : 00:05:12.68 = 13789188 samples = 23451 CDDA sectors
File Size : 12.6M
Bit Rate : 322k
Sample Encoding: MPEG audio (layer I, II or III)
Comments :
Title=To Bear The Sword
Artist=Ancient Mastery
Album=The Chosen One
Tracknumber=2
Year=2021
Genre=Black Metal



[ Hidden Text ]
murian
nice one
Storky
ЦИТАТА(murian @ Apr 11 2021, 01:04:16) *
nice one

+1
This is a "lo-fi" version of our main content. To view the full version with more information, formatting and images, please click here.
Invision Power Board © 2001-2021 Invision Power Services, Inc.