Help - Search - Members - Calendar
Full Version: Sweet Oblivion - Relentless (2021)
Metal Area - Extreme Music Portal > Releases Area / Релизы > Archive
Samaritianin


*Artist: Sweet Oblivion
*Album: Relentless
*Year: 2021
*Genre: Melodic Heavy Metal
*Country: International
*Format: mp3@CBR320kbps
*Size: 100MB

Tracklist:
01. Once Again One Sin
02. Strong Pressure
03. Let It Be
04. Another Change
05. Wake Up Call
06. Remember Me
07. Anybody Out There
08. Aria
09. I'll Be The One
10. Fly Angel Fly
******************************
Total playing time: 42:45



Extended info
Italy / USA
Geoff Tate - Vocals
Aldo Lonobile - Guitars
Luigi Andreone - Bass
Antonio Agate - Keyboards
Michele Sanna - Drums


Technical info

Input File: 07 - Anybody out There (feat. Geoff Tate).mp3
Channels : 2
Sample Rate : 44100
Precision : 16-bit
Duration : 00:04:12.00 = 11113200 samples = 18900 CDDA sectors
File Size : 10.4M
Bit Rate : 331k
Sample Encoding: MPEG audio (layer I, II or III)
Comments :
Title=Anybody out There (feat. Geoff Tate)
Artist=SWEET OBLIVION/Geoff Tate
Album=Relentless
Tracknumber=7
Year=2021-09-04
Discnumber=1



[ Hidden Text ]
DenisKov
Третьесорт, Another Change и Remember Me еще туда сюда, а остальное совсем тухляк.
This is a "lo-fi" version of our main content. To view the full version with more information, formatting and images, please click here.
Invision Power Board © 2001-2021 Invision Power Services, Inc.